<?xml version="1.0" standalone="no"?>
<!DOCTYPE svg PUBLIC "-//W3C//DTD SVG 1.1//EN" "http://www.w3.org/Graphics/SVG/1.1/DTD/svg11.dtd" >
<svg xmlns="http://www.w3.org/2000/svg">
<metadata>
This is a custom SVG webfont generated by Font Squirrel.
Copyright   : Digitized data  2007 Ascender Corporation All rights reserved
Designer    : Steve Matteson
Foundry     : Ascender Corporation
Foundry URL : httpwwwascendercorpcom
</metadata>
<defs>
<font id="webfontwflF1Ngq" horiz-adv-x="1228" >
<font-face units-per-em="2048" ascent="1638" descent="-410" />
<missing-glyph horiz-adv-x="500" />
<glyph unicode=" " />
<glyph unicode="!" d="M514 0v201h195v-201h-195zM516 1348h197l-25 -951h-147z" />
<glyph unicode="&#x22;" d="M276 1485h226l-43 -639h-142zM725 1485h225l-43 -639h-141z" />
<glyph unicode="#" d="M53 408v108h226l67 318h-242v106h265l88 410h110l-88 -410h363l88 410h110l-88 -410h211v-106h-233l-68 -318h260v-108h-282l-88 -408h-111l86 408h-362l-84 -408h-111l86 408h-203zM389 516h363l67 318h-360z" />
<glyph unicode="$" d="M66 379l170 37q10 -45 34 -99q23 -49 60 -79q39 -33 96 -56q55 -23 131 -24v489q-2 0 -7 1t-7 3q-6 0 -11 2l-2 1l-2 1q-66 16 -98 27q-57 18 -92 33q-45 18 -82 47q-43 31 -68 65q-29 39 -43 84q-16 53 -16 113q0 80 33 141q31 57 90 99q55 39 135 59q72 18 170 23v131 h129v-131q100 -2 174 -25q63 -18 123 -64q53 -41 84 -98q29 -53 51 -135l-174 -33q-8 43 -29 88q-16 37 -51 68q-33 31 -76 45q-49 18 -102 20v-426q18 -4 57 -14t58 -14q53 -14 108 -37q47 -18 97 -51q37 -25 75 -70q33 -39 51.5 -94t18.5 -125q0 -72 -28.5 -139.5 t-86.5 -112.5q-63 -49 -143 -76q-82 -27 -207 -33v-161h-129v161q-213 6 -336 99q-120 90 -155 260zM301 1018q0 -55 21 -90q16 -31 55 -58q31 -23 80 -39l100 -28v411q-70 -2 -119 -18q-49 -15 -79.5 -43t-43.5 -61q-14 -39 -14 -74zM686 156q68 4 119 18q52 15 92 43 q35 25 59 70q23 41 23 96q0 65 -25 104q-27 43 -63 66q-47 29 -94 43l-111 31v-471z" />
<glyph unicode="%" d="M0 1024q0 96 23 164q22 65 61 104q37 37 92 53.5t115 16.5q55 0 110 -16q53 -14 91 -54q37 -37 59 -104.5t22 -163.5q0 -92 -22 -160q-22 -65 -62 -104q-39 -39 -90 -57.5t-112.5 -18.5t-112.5 18q-53 18 -90 56q-39 39 -61.5 106.5t-22.5 159.5zM76 0l932 1354h147 l-934 -1354h-145zM147 1024q0 -68 8.5 -106.5t28.5 -69.5q18 -27 45 -39q29 -12 60 -12q33 0 57 12q27 12 43 39q20 31 28.5 69.5t8.5 106.5q0 72 -8 111q-10 47 -27 71q-18 28 -43 37q-27 10 -57 10q-37 0 -64 -12q-29 -12 -45 -37q-16 -27 -26 -69q-9 -39 -9 -111z M655 330q0 94 23 162q22 65 61 104q37 37 92.5 53.5t114.5 16.5q55 0 111 -17q53 -14 90 -53q40 -40 61 -104q23 -68 23 -162t-23 -162q-22 -65 -61 -105q-39 -39 -92 -57q-51 -18 -113 -18q-57 0 -110.5 18.5t-92.5 56.5q-40 40 -61 105q-23 68 -23 162zM803 330 q0 -61 10 -109q10 -43 27 -69q18 -27 45 -39q29 -12 59 -13q35 0 59.5 12.5t43.5 39.5q16 27 26 69q10 47 10 108.5t-10 108.5t-26 72q-18 28 -43 37q-27 10 -58 10q-39 0 -61 -10q-27 -12 -45 -39q-20 -31 -28.5 -69.5t-8.5 -108.5z" />
<glyph unicode="&#x26;" d="M43 358q0 72 23 140q20 61 61 114q40 52 92 93q51 39 117 71q-16 29 -29 64q-23 63 -24 69q-12 49 -17 74q-6 37 -6 76q0 63 21 117q20 51 65 94q45 41 111 63q74 25 153 25q70 0 129 -19q61 -20 103 -51q39 -31 65 -84q25 -49 25 -114q0 -68 -35 -125q-33 -55 -90 -97 q-63 -47 -131 -77l-152 -68q20 -37 64 -105q41 -66 63.5 -98.5t71.5 -93.5q37 -46 80 -92q37 76 71 184q33 102 54 221l143 -43q-25 -141 -67 -254q-37 -98 -95 -209q43 -55 92.5 -79.5t88.5 -24.5q18 0 51 4q23 2 45 12v-135q-16 -8 -53 -16q-28 -6 -62 -6q-37 0 -78 10 q-35 8 -71 29q-45 25 -64 41q-28 25 -49 49q-31 -27 -64 -49q-45 -31 -79 -45q-45 -18 -95 -31q-52 -12 -110 -12q-106 0 -189 28q-76 27 -129 80q-49 49 -75 121q-25 67 -25 149zM211 362q0 -49 16 -98q14 -45 47 -80q31 -35 82 -53q55 -20 113 -20q33 0 74 10q33 8 65 24 q35 18 56 33q16 12 43 39q-102 115 -170 213q-102 145 -148 227q-84 -45 -131 -121t-47 -174zM408 1057q0 -65 18 -123q14 -45 43 -103l121 54q49 23 98 53q41 27 68 66q25 37 24 81q0 34 -12 62q-12 29 -35 47q-20 18 -53 31q-31 12 -72 12q-37 0 -80 -14q-33 -10 -63 -35 q-23 -18 -41 -58q-16 -36 -16 -73z" />
<glyph unicode="'" d="M502 1485h223l-41 -639h-141z" />
<glyph unicode="(" d="M342 532q0 147 20 269q18 111 68 239q43 114 111 222q74 117 159 223h191q-96 -119 -164 -232q-74 -123 -113 -227q-45 -119 -65 -238q-20 -117 -21 -258q0 -143 21 -260q20 -119 65 -237q39 -104 113 -228q68 -113 164 -231h-191q-94 117 -159 223q-68 109 -111 226 q-49 129 -68 239q-20 120 -20 270z" />
<glyph unicode=")" d="M336 -426q104 127 166 231q74 123 112 228q45 119 66 237q20 117 20 260q0 141 -20 258q-20 119 -66 238q-39 104 -112 227q-61 104 -166 232h192q86 -106 160 -223q68 -108 111 -222q45 -119 65.5 -239.5t20.5 -268.5q0 -150 -20.5 -270.5t-65.5 -238.5 q-43 -117 -111 -226q-66 -106 -160 -223h-192z" />
<glyph unicode="*" d="M248 1159l45 133l266 -106l-10 297h135l-12 -295l264 102l45 -131l-283 -74l185 -249l-119 -72l-150 258l-155 -256l-119 72l188 247z" />
<glyph unicode="+" d="M117 608v146h424v428h145v-428h424v-146h-424v-428h-145v428h-424z" />
<glyph unicode="," d="M258 -362l170 661h264l-309 -661h-125z" />
<glyph unicode="-" d="M334 465v160h561v-160h-561z" />
<glyph unicode="." d="M496 0v299h235v-299h-235z" />
<glyph unicode="/" d="M115 -20l821 1505h176l-815 -1505h-182z" />
<glyph unicode="0" d="M125 676q0 203 37 338q35 131 102 213q63 78 157.5 110.5t194.5 32.5q96 0 191 -33q89 -31 154 -110q70 -86 104 -213q39 -143 39 -338q0 -199 -39 -328q-41 -137 -104.5 -215t-157.5 -117q-90 -37 -192.5 -36.5t-190.5 36.5q-96 39 -156 117q-68 86 -102 213 q-37 133 -37 330zM305 676q0 -160 21 -260q20 -102 61 -168t96 -92q61 -29 129 -29t129 29q55 27 96.5 92t61.5 168q20 100 21 260q0 162 -21 264q-23 115 -57 170q-39 63 -97 88q-59 27 -129 27q-78 0 -133 -27q-59 -29 -98 -90q-37 -59 -59 -168q-21 -100 -21 -264z" />
<glyph unicode="1" d="M147 973v147q82 0 146 17q82 20 133 47q61 31 110.5 73.5t73.5 92.5h166v-1205h354v-145h-972v145h438v1020q-18 -39 -67.5 -75.5t-110.5 -61.5q-66 -27 -133 -41q-66 -14 -138 -14z" />
<glyph unicode="2" d="M143 0v117q39 88 117 180q59 70 154 154q106 94 164 139q78 59 149 129q63 61 109 131q41 63 41 141q0 59 -19 103q-20 47 -55 73q-41 31 -84 41q-57 14 -108.5 14.5t-100.5 -16.5q-51 -16 -82 -45q-34 -31 -55 -74q-25 -49 -31 -104l-182 18q8 72 41 144q31 68 86 117 q59 53 137 79q82 29 186 29q106 0 189 -24q88 -27 143 -70t88 -117q33 -72 33 -158q0 -94 -43 -174q-45 -82 -111 -151q-78 -82 -149 -137l-162 -129q-77 -65 -141 -129q-66 -66 -97 -136h723v-145h-940z" />
<glyph unicode="3" d="M127 362l186 17q10 -57 31 -102.5t57 -77.5q35 -33 93 -52q55 -18 127 -18q137 0 213 64q78 66 77 184q0 66 -34 112q-31 43 -86 72q-45 25 -111 37q-51 10 -113 10h-100v158h96q51 0 107 12q57 12 100 39t76 72q29 41 28 108q0 109 -65 166q-70 59 -199 60 q-119 0 -192 -62q-72 -59 -84 -172l-182 15q12 96 51 161q41 68 102 115q63 47 139 68q84 23 168 22q115 0 205 -29q82 -27 137.5 -75.5t79.5 -112.5q27 -70 27 -137q0 -53 -19 -107q-18 -51 -55 -94q-41 -47 -92 -76q-57 -33 -129 -47v-4q84 -10 143 -39q61 -31 105 -74 q41 -41 63.5 -96t22.5 -108q0 -86 -33 -164q-31 -74 -92 -123q-63 -51 -149.5 -77.5t-204.5 -26.5q-133 0 -220 32q-89 34 -147 86q-59 53 -88 123q-31 75 -39 141z" />
<glyph unicode="4" d="M102 319v140l635 891h201v-889h186v-142h-186v-319h-180v319h-656zM256 461h502v692z" />
<glyph unicode="5" d="M127 315l182 21q14 -45 33 -78q20 -37 53 -65q29 -25 86 -48q49 -18 121 -18q66 0 127 23q58 22 98 61q43 43 63.5 98.5t20.5 130.5q0 61 -20 111q-23 57 -60 90q-41 39 -96 59q-57 23 -129 23q-49 0 -82 -8q-49 -12 -71 -23q-27 -12 -58 -33q-37 -25 -51 -38h-174 l45 729h803v-146h-635l-31 -426q45 35 121 64q68 27 170 26q106 0 191 -30q80 -29 143 -90q59 -55 90 -134q33 -82 33 -170q0 -94 -33 -186q-31 -88 -94 -147q-66 -63 -158 -97q-94 -35 -217 -34q-102 0 -192 26q-78 23 -140 72q-55 43 -90 106q-35 61 -49 131z" />
<glyph unicode="6" d="M152 641q0 174 34.5 313.5t98.5 229.5q63 92 159 139q94 47 211 47q76 0 136 -14q61 -14 114 -49q49 -33 90 -88q40 -55 62 -136l-172 -30q-27 90 -90.5 131t-141.5 41q-72 0 -135 -35q-53 -31 -100 -103q-45 -70 -66 -165q-23 -102 -22 -228q49 92 139 139.5t203 47.5 q94 0 174 -31q82 -31 135 -88q55 -59 86 -137q29 -74 29 -179q0 -106 -29 -186q-31 -88 -88 -147q-66 -68 -141 -99q-88 -35 -197 -34q-121 0 -215 47q-90 45 -154 133q-59 82 -90 207q-30 122 -30 274zM348 481q0 -76 21 -137q23 -66 57 -113q37 -49 90 -77.5t119 -28.5 q61 0 117 22q47 20 88 64q37 40 55 98.5t18 128.5q0 68 -18 123q-20 59 -53 96q-37 39 -90 62q-55 23 -123 22q-45 0 -99 -16q-51 -16 -90 -49q-47 -41 -67 -80q-25 -49 -25 -115z" />
<glyph unicode="7" d="M158 1204v146h911v-140q-106 -154 -182 -284q-82 -141 -149.5 -301t-102.5 -310q-39 -166 -39 -315h-188q0 156 41 315q41 164 106 312q68 152 156 299q98 164 184 278h-737z" />
<glyph unicode="8" d="M133 377q0 74 23 127q25 59 63 100q39 43 90 68q51 27 105 35v4q-61 16 -105 45q-47 33 -78 73q-37 51 -49 93q-16 53 -16 102q0 68 29 131q27 59 84 111q53 47 139 75.5t192 28.5q109 0 199 -29q84 -27 141 -77q55 -49 82 -110.5t27 -131.5q0 -49 -17 -102 q-14 -47 -47 -93q-27 -37 -77 -71q-45 -31 -109 -43v-4q59 -8 112.5 -37t90.5 -68q40 -43 61 -98q20 -53 21 -127q0 -82 -29 -158q-27 -70 -86 -127q-53 -51 -150 -84q-89 -31 -215 -30q-127 0 -215 30q-90 31 -149 84q-61 55 -88 127q-29 76 -29 156zM319 391 q0 -57 17 -110q15 -49 49 -86q35 -39 92 -60q55 -20 139 -20t138 20q57 23 90 58q33 37 49 90q14 49 14 112q0 49 -14 90q-16 47 -47 80q-33 35 -92 58q-55 20 -144 20q-82 0 -135 -20q-55 -23 -90 -60q-35 -39 -49 -80q-17 -49 -17 -92zM350 1012q0 -45 10 -78 q12 -41 41 -76q31 -37 80 -57q55 -23 131 -23q78 0 138 25q47 18 77 57q27 33 37 76q8 35 8 76t-14 88q-12 39 -45 71q-27 27 -80 48q-49 18 -123 18q-70 0 -118 -18q-55 -20 -82 -48q-29 -29 -45 -71q-15 -37 -15 -88z" />
<glyph unicode="9" d="M141 911q0 102 31 189q29 80 92 143q59 59 148 94q84 33 198 33q237 0 357 -166q121 -168 120 -502q0 -172 -34 -311q-31 -127 -103 -227q-63 -90 -159 -137q-98 -47 -213 -47q-78 0 -148 16q-55 14 -115 51q-47 31 -88 92q-35 53 -57 135l172 27q27 -88 88 -133 q57 -43 150 -43q72 0 135 35q57 33 102 98q39 57 66 166q27 106 26 225q-23 -49 -57.5 -84t-83.5 -61q-51 -27 -100 -39q-61 -14 -109 -14q-94 0 -174 34q-76 33 -131 95q-53 59 -84 145q-29 80 -29 186zM324 911q0 -65 18 -123q20 -61 51 -102q33 -41 88 -68 q51 -25 121 -24q55 0 103 16q49 16 92 52q37 29 67 83q27 47 27 117q0 76 -19 139q-18 66 -55 115q-33 45 -90 78q-52 31 -123 31q-61 0 -117 -23q-49 -20 -88 -65t-55 -99q-20 -66 -20 -127z" />
<glyph unicode=":" d="M496 0v299h235v-299h-235zM496 782v299h235v-299h-235z" />
<glyph unicode=";" d="M352 -362l168 661h266l-311 -661h-123zM496 782v299h235v-299h-235z" />
<glyph unicode="&#x37e;" d="M352 -362l168 661h266l-311 -661h-123zM496 782v299h235v-299h-235z" />
<glyph unicode="&#x3c;" d="M117 571v205l993 418v-154l-856 -366l856 -367v-153z" />
<glyph unicode="=" d="M117 344v148h993v-148h-993zM117 856v148h993v-148h-993z" />
<glyph unicode="&#x3e;" d="M117 154v153l858 367l-858 366v154l993 -418v-205z" />
<glyph unicode="?" d="M94 961q12 89 49 165q35 74 101 129q63 53 149 84q90 31 201 31q108 0 197 -24q88 -25 151 -70q61 -43 96 -115q35 -70 35 -160q0 -68 -18 -120t-49 -93q-29 -37 -72 -73q-27 -23 -80 -64q-23 -16 -44.5 -32.5l-35.5 -26.5q-47 -35 -72 -64q-35 -39 -51 -75 q-20 -47 -20 -97h-174q4 70 20 119q16 47 51 92q29 37 70 72q27 23 80 63l78 58q33 25 67 63q31 35 49 76q18 43 19 94q0 57 -21 99q-23 43 -59 69q-43 29 -92 43q-59 16 -123 17q-61 0 -123 -21q-59 -20 -96 -53q-45 -43 -68 -86q-25 -49 -30 -113zM449 0v201h194v-201 h-194z" />
<glyph unicode="@" d="M43 514q0 209 43 387t123 307t196.5 203t266.5 74q129 0 229 -60q96 -57 162 -159q63 -100 94 -232q33 -141 33 -278q0 -150 -21 -264q-23 -125 -59 -205q-41 -88 -96.5 -135.5t-128.5 -47.5q-35 0 -58 9q-29 10 -45 26q-20 20 -30.5 47t-10.5 74v8v13q0 2 1 5t1 5v8h-6 q-8 -20 -39 -74q-20 -37 -51 -63q-31 -28 -67 -43q-35 -14 -78 -15q-66 0 -107 33t-69 86q-23 43 -37 123q-12 72 -13 143q0 76 13 150q14 84 33 143q23 70 55 127q35 61 72 101q39 43 90 67q49 25 104 25q37 0 74 -15q33 -12 53 -36q16 -18 35 -56q10 -23 22 -67h7l30 151 h117l-98 -508l-17 -82q-8 -53 -12 -77.5t-8 -65.5t-4 -51q0 -55 14 -71.5t35 -16.5q39 0 71.5 39t57.5 112q23 66 35 174q12 101 12 222q0 141 -25 239q-29 113 -77 197q-47 80 -125 131q-70 47 -170 47q-121 0 -213 -68q-96 -70 -157.5 -182t-96.5 -270q-33 -152 -33 -334 q0 -160 29 -276q31 -126 86 -215q55 -88 137 -140q80 -49 182 -49q49 0 111 14q53 12 94 33q53 27 86 49q35 25 78 64l71 -88q-49 -43 -92 -72q-39 -27 -104 -59q-55 -29 -119 -43q-59 -14 -135 -15q-127 0 -229 56q-98 53 -172 161q-72 106 -111 250t-39 330zM412 492 q0 -61 6 -112.5t18.5 -88.5t34.5 -60q20 -20 55 -20q39 0 74 27q37 29 66 77q31 55 51 121q27 86 37 160q2 10 6 43q0 8 3 25.5t5 27.5q0 8 1 26.5t3 26.5q2 16 2 39q0 102 -35 160q-35 55 -94 55q-35 0 -67 -22q-37 -27 -60 -59q-18 -29 -45 -89q-18 -43 -33 -106 q-16 -72 -20 -115q-8 -77 -8 -116z" />
<glyph unicode="A" d="M0 0l510 1350h217l502 -1350h-195l-137 383h-563l-137 -383h-197zM385 530h463l-148 424q-8 25 -26 76q-8 20 -13.5 40t-11.5 36q-12 35 -20 61l-13 37q-2 -8 -12 -39l-20 -61l-12.5 -37.5t-10.5 -36.5q-6 -20 -13 -39.5l-13 -36.5z" />
<glyph unicode="B" d="M162 0v1350h411q106 0 209 -21q92 -18 155.5 -57t98.5 -103q33 -59 33 -147q0 -53 -16 -107q-16 -51 -49 -90q-35 -41 -84 -71q-41 -27 -117 -43q84 -8 149 -37q68 -29 111 -72t65.5 -100.5t22.5 -120.5q0 -109 -41 -176q-43 -72 -113 -117q-71 -46 -166 -68 q-90 -20 -196 -20h-473zM352 154h266q84 0 136 10q61 12 108 40.5t71.5 74t24.5 118.5q0 63 -24.5 106.5t-71.5 71.5q-53 31 -112 43q-66 12 -146 13h-252v-477zM352 780h226q84 0 139 15q49 12 92 45q39 29 53 67q16 43 17 90q0 109 -76 154t-228 45h-223v-416z" />
<glyph unicode="C" d="M113 682q0 156 32 293q31 127 99 217q66 88 166 133q98 45 239 45q102 0 176 -26.5t133 -75.5q49 -41 93 -107q37 -55 63 -127l-168 -63q-14 45 -40.5 90t-61.5 78q-37 34 -86 55q-47 20 -109 20q-86 0 -151.5 -34.5t-104.5 -100.5q-41 -70 -59 -168q-20 -109 -21 -229 q0 -137 21 -233q23 -109 61 -173q41 -68 109 -106q61 -35 158 -35q63 0 112 25q57 29 90 61q47 47 70 90q29 55 49 107l160 -66q-23 -57 -70 -137q-39 -66 -98.5 -119t-136.5 -84q-82 -33 -179 -32q-137 0 -243 51q-102 49 -170 141q-66 90 -101 221q-32 125 -32 289z" />
<glyph unicode="D" d="M162 0v1350h311q160 0 279 -39q123 -41 204 -119q84 -80 127 -207q41 -121 41 -297q0 -172 -39 -297q-40 -129 -116 -215q-80 -90 -187 -131q-117 -45 -250 -45h-370zM352 156h162q211 0 315 133q104 132 105 399q0 133 -29 232q-27 94 -86 155q-61 63 -141 90 q-90 29 -205 29h-121v-1038z" />
<glyph unicode="E" d="M162 0v1350h919v-156h-729v-424h670v-154h-670v-460h770v-156h-960z" />
<glyph unicode="F" d="M195 0v1350h890v-156h-700v-496h676v-157h-676v-541h-190z" />
<glyph unicode="G" d="M113 682q0 166 30 295q31 127 96.5 215t166.5 133q98 45 235 45q92 0 176 -27q70 -23 131 -69q59 -45 94 -105q35 -57 62 -131l-172 -55q-37 109 -107 170q-72 61 -182 61q-86 0 -151 -34q-61 -33 -103 -103q-39 -66 -57 -166q-18 -98 -19 -229q0 -268 86 -407.5 t256 -139.5q51 0 90 8q43 8 74 21q31 10 58 24q35 16 38 21v336h-292v160h479v-572q-12 -8 -84 -51q-43 -27 -107 -49q-59 -23 -125 -37q-72 -16 -147 -16q-133 0 -233 53q-98 53 -164 145q-66 94 -97 221q-32 138 -32 283z" />
<glyph unicode="H" d="M162 0v1350h190v-568h522v568h193v-1350h-193v623h-522v-623h-190z" />
<glyph unicode="I" d="M203 0v156h315v1038h-315v156h821v-156h-315v-1038h315v-156h-821z" />
<glyph unicode="J" d="M176 350l186 31q9 -65 31 -111q18 -39 51 -75q25 -29 66 -45q35 -14 78 -15q102 0 155.5 72t53.5 209v778h-312v156h500v-930q0 -100 -24 -182q-23 -74 -76 -138q-49 -59 -125 -90q-74 -31 -174 -30q-170 0 -273 90q-104 90 -137 280z" />
<glyph unicode="K" d="M162 0v1350h190v-674l574 674h225l-506 -574l582 -776h-223l-488 639l-164 -170v-469h-190z" />
<glyph unicode="L" d="M238 0v1350h190v-1194h672v-156h-862z" />
<glyph unicode="M" d="M129 0v1350h238l184 -490q6 -12 20 -61q16 -49 23 -76q8 -29 24 -94l27 90q10 37 23 76q14 49 20 63l186 492h226v-1350h-162v868v105q0 68 2 96q2 35 2 100l-33 -108l-30 -94q-18 -57 -31 -88l-164 -439h-137l-166 439q-8 20 -12 34q-10 33 -15 45l-16 48l-16 49 l-37 114q0 -23 1 -48t1 -52q0 -14 1 -47t1 -51v-103v-868h-160z" />
<glyph unicode="N" d="M162 0v1350h223l526 -1139q-4 29 -8 86q-4 45 -6 88q-2 33 -2 100v865h172v-1350h-231l-521 1130l9 -88q2 -25 6 -81q2 -29 2 -84v-877h-170z" />
<glyph unicode="O" d="M102 682q0 176 33 301t101 215q65 86 159 129q96 43 219 43q246 0 379 -174t133 -514q0 -170 -34 -305q-31 -121 -103 -219q-66 -90 -160 -133q-100 -45 -217 -45q-125 0 -223 47q-92 45 -160 137q-66 90 -96.5 219t-30.5 299zM303 682q0 -272 80 -409.5t231 -137.5 q166 0 238 139q74 141 74 408q0 268 -80 401q-80 131 -232 131q-158 0 -233 -131q-78 -133 -78 -401z" />
<glyph unicode="P" d="M162 0v1350h461q121 0 217 -29q88 -27 155 -84q61 -51 92 -127q31 -74 31 -166q0 -88 -28 -160q-33 -82 -91 -139q-55 -55 -151 -94q-92 -37 -213 -37h-283v-514h-190zM352 666h254q84 0 144 20q57 20 100 59q39 37 57 89q20 57 21 108q0 125 -82 188q-84 66 -248 66 h-246v-530z" />
<glyph unicode="Q" d="M102 682q0 176 33 301t101 215q65 86 159 129q96 43 219 43q246 0 379 -174t133 -514q0 -139 -26 -266q-25 -117 -74 -203q-49 -88 -119 -141q-68 -53 -162 -76q39 -123 109 -182q66 -57 168 -58q18 0 59 4t56 9v-134q-45 -10 -84 -16q-45 -6 -95 -6q-86 0 -149 25 q-57 23 -113 73q-49 45 -84 117q-33 63 -61 156q-117 12 -197 63q-86 55 -139 139q-59 96 -86 215q-27 121 -27 281zM303 682q0 -272 80 -409.5t231 -137.5q166 0 238 139q74 141 74 408q0 268 -80 401q-80 131 -232 131q-158 0 -233 -131q-78 -133 -78 -401z" />
<glyph unicode="R" d="M162 0v1350h481q115 0 211 -27q92 -25 150 -74q57 -47 88 -116q29 -63 28 -156q0 -63 -18 -125q-18 -59 -62 -113q-45 -55 -106.5 -90t-157.5 -51l402 -598h-222l-364 575h-240v-575h-190zM352 725h281q86 0 139 20q63 25 92 54q34 34 49 80q16 49 17 94q0 223 -305 223 h-273v-471z" />
<glyph unicode="S" d="M80 338l184 37q14 -59 35 -101q23 -43 68 -77q39 -31 102 -50q61 -18 145 -18q66 0 134 14q55 12 100 41q43 28 67 74q23 43 23 109q0 76 -31 114q-35 45 -86 72q-49 27 -119 45l-135 35l-35 9t-28.5 8t-36.5 12q-61 18 -98 32q-47 18 -88 47q-45 31 -72 64 q-25 31 -47 88q-16 43 -17 117q0 100 35 164q39 72 101 112q63 43 147 64q82 20 186 20q119 0 199 -20q82 -20 137.5 -61.5t89.5 -102.5q35 -63 56 -139l-189 -33q-12 51 -33 90q-23 41 -57 67q-33 25 -86 41q-45 14 -117 15q-76 0 -135 -17q-47 -12 -86 -45 q-31 -25 -47 -67q-14 -37 -14 -84q0 -63 26 -99q29 -39 72 -61q53 -29 105 -41l131 -35l110 -28q51 -14 106.5 -37t96.5 -49.5t78 -69.5q35 -41 53 -96.5t18 -126.5q0 -88 -30 -158q-31 -72 -94 -123q-70 -55 -162 -82q-102 -29 -232 -28q-236 0 -364.5 92t-165.5 266z" />
<glyph unicode="T" d="M76 1194v156h1075v-156h-442v-1194h-191v1194h-442z" />
<glyph unicode="U" d="M141 471v879h193v-852q0 -98 12 -166q12 -70 43 -113t82 -63q49 -20 133 -21q86 0 139 21q55 20 88 63q33 41 50 117q14 66 14 176v838h190v-861q0 -131 -28 -233q-25 -90 -90 -158q-59 -61 -150 -90q-92 -29 -213 -28.5t-203 26.5q-84 27 -143 86q-61 61 -88 152 q-29 96 -29 227z" />
<glyph unicode="V" d="M10 1350h201l319 -904q4 -10 10.5 -28.5l11.5 -33.5t9 -30l27 -92q14 -47 26 -94q12 45 27 92l27 90l30 96l320 904h201l-506 -1350h-199z" />
<glyph unicode="W" d="M0 1350h188l111 -836q4 -25 8 -73t4 -54q2 -14 5 -53t6 -58q8 -84 10 -108q8 33 15 66.5l15 68.5q2 12 6.5 27.5t8.5 31.5q6 31 14 62l15 57q4 14 8 29.5t6 21.5l108 400h174l109 -400q2 -6 6 -20t8 -31q6 -29 15 -57q2 -10 7 -29.5t7 -29.5l8 -32t6 -28l15.5 -69.5 t15.5 -67.5q2 12 4 35l8 84q2 27 6.5 56.5t6.5 55.5q4 41 12 115l102 836h191l-211 -1350h-207l-104 387q-2 8 -5.5 19.5l-7.5 25.5q-6 27 -14 55l-16 62q-8 31 -15 61l-33 146l-34 -148q-6 -31 -15 -61l-16 -60q-4 -14 -14 -55q-2 -12 -6.5 -23.5t-6.5 -21.5l-104 -387 h-209z" />
<glyph unicode="X" d="M37 0l475 705l-434 645h205l331 -514l332 514h205l-434 -645l477 -705h-207l-373 573l-372 -573h-205z" />
<glyph unicode="Y" d="M37 1350h205l372 -613l373 613h205l-483 -766v-584h-189v584z" />
<glyph unicode="Z" d="M74 0v143l817 1051h-746v156h963v-140l-817 -1054h864v-156h-1081z" />
<glyph unicode="[" d="M410 -426v1911h546v-139h-366v-1633h366v-139h-546z" />
<glyph unicode="\" d="M115 1485h178l821 -1505h-182z" />
<glyph unicode="]" d="M270 -287h367v1633h-367v139h547v-1911h-547v139z" />
<glyph unicode="^" d="M133 442l379 908h203l379 -908h-154l-330 803l-325 -803h-152z" />
<glyph unicode="_" d="M-4 -125h1237v-94h-1237v94z" />
<glyph unicode="`" d="M401 1432v28h197l227 -239v-21h-123z" />
<glyph unicode="a" d="M127 301q0 106 41 176q43 72 102 109q61 37 146 53q88 16 166 16l235 4v60q0 68 -12 115t-41 75q-33 33 -70 43q-43 12 -98 13q-51 0 -90 -7q-35 -6 -70 -28q-29 -18 -47 -53t-24 -84l-189 18q9 65 37 117q27 51 78 92q49 41 125 61q74 20 182 21q197 0 301 -94 q100 -92 100 -271v-465q0 -80 22.5 -120.5t80.5 -40.5q18 0 28 2q4 2 14.5 4t14.5 2v-113q-34 -9 -67 -12q-45 -4 -70 -4q-45 0 -88 14q-37 12 -60 41q-23 31 -34 68q-14 45 -17 94h-6q-27 -49 -61 -94q-29 -37 -78 -72q-41 -29 -100 -45q-61 -16 -132 -16q-158 0 -237 86 q-82 88 -82 235zM317 299q0 -80 45.5 -131t129.5 -51q80 0 145 33q63 31 100 77q41 49 62 107q18 49 18 110v91l-188 -5q-37 0 -111 -8q-53 -6 -100 -33q-49 -29 -74 -69q-27 -45 -27 -121z" />
<glyph unicode="b" d="M178 0q0 2 1 12.5t1 18.5q0 6 1 23.5t1 27.5t1 31.5t1 33.5v76v1262h181v-424v-57q0 -10 -1.5 -28t-1.5 -24q0 -8 -1 -25.5t-1 -23.5h5q51 111 133 154q88 47 200 47q195 0 293 -139q98 -138 99 -418q0 -287 -101 -426q-100 -141 -291 -141q-115 0 -200 43 q-84 41 -133 141h-3q0 -8 -1 -25.5t-1 -28t-1 -27.5t-1 -24q0 -8 -1 -21t-1 -18q0 -6 -3 -16l-1 -4h-174zM365 524q0 -123 20 -198q23 -84 57 -127q39 -47 88 -66q57 -20 117 -20q61 0 113 22q47 20 80 76q33 57 47 131q16 88 16 199q0 119 -14 192q-14 76 -47 131 q-29 49 -78 76q-47 25 -115 25q-63 0 -119 -23q-51 -20 -88 -74q-37 -51 -57 -135q-20 -82 -20 -209z" />
<glyph unicode="c" d="M129 543q0 163 43 270q43 106 115 172q68 61 159 90q86 27 187 27q96 0 174 -25q74 -25 133 -69q55 -43 90 -103q35 -61 47 -127l-190 -12q-14 90 -80 143q-63 51 -182 52q-90 0 -146 -27q-57 -27 -94 -80q-35 -49 -51 -131q-14 -72 -15 -176q0 -106 15 -180 q16 -82 51 -136q39 -57 94 -84q61 -29 144 -28q109 0 180 53q70 51 88 162l188 -12q-9 -68 -43 -129q-37 -66 -90 -109q-66 -51 -135 -76q-82 -29 -180 -28q-135 0 -232 43q-100 45 -155 118q-58 77 -86 178q-29 105 -29 224z" />
<glyph unicode="d" d="M137 532q0 565 393 566q120 0 203 -43q78 -41 129 -142h2v27v45v49q0 8 -1 18.5t-1 12.5v420h180v-1262q0 -14 1 -38.5t1 -37.5v-65q0 -10 1.5 -27.5t1.5 -23.5q0 -8 1 -18.5t1 -12.5h-172q0 10 -3 23q-4 25 -4 43q0 8 -1 25.5t-1 27.5t-1 28.5t-1 26.5h-4 q-51 -106 -131 -154q-82 -47 -201 -47q-201 0 -297 139t-96 420zM324 539q0 -119 14 -193q16 -84 45 -133q31 -51 80 -75.5t115 -24.5q70 0 122 24q51 25 88 76t56 137q18 84 18 205q0 113 -18.5 192.5t-53 127t-90.5 69.5q-49 20 -120 21q-61 0 -113 -23q-49 -22 -80 -74 q-33 -55 -47 -133q-16 -87 -16 -196z" />
<glyph unicode="e" d="M133 549q0 158 39 262q39 106 107 170q66 63 155.5 92t181.5 29q137 0 222 -41q90 -43 147 -119q61 -80 84 -180q25 -106 25 -236v-22h-772q0 -80 20 -158q18 -71 55 -123q35 -51 95 -80q57 -29 131 -28q57 0 102 12t84 35q35 20 61.5 53t36.5 66l158 -45 q-12 -39 -47 -91q-27 -41 -86 -82q-47 -33 -129 -59q-78 -25 -180 -24q-113 0 -205 36.5t-156 106.5q-61 68 -96 178q-33 105 -33 248zM324 641h583q-10 96 -32.5 157.5t-65.5 100.5t-86 53q-53 16 -104.5 16.5t-96.5 -14.5q-53 -16 -94 -51t-72 -100q-28 -62 -32 -162z" />
<glyph unicode="f" d="M137 940v141h262v27q0 98 23 172q20 68 74 117q47 43 129 65q84 23 192 23q8 0 31.5 -1t38.5 -1q27 0 80 -4l38.5 -5.5t36.5 -3.5l58 -8v-143q-6 2 -26.5 3t-29.5 1l-75 6q-53 4 -74 4q-14 0 -32.5 1t-22.5 1q-59 0 -115 -10q-51 -10 -82 -37q-33 -29 -47 -74 q-16 -49 -16 -122v-11h491v-141h-491v-940h-181v940h-262z" />
<glyph unicode="g" d="M143 549q0 137 20.5 233.5t69.5 171.5q47 72 123 109q78 37 187 37q113 0 196.5 -53.5t128.5 -149.5h2q0 8 1 26.5t1 29t1 31t1 28.5q0 18 5 47q0 6 1 11t2 8l1 3h172q0 -2 -1 -12t-1 -18q0 -6 -1 -23.5t-1 -28t-1 -32t-1 -33.5v-76v-825q0 -229 -107 -342 q-109 -115 -328 -115q-90 0 -157 18q-72 18 -119 56q-51 39 -80 84q-31 49 -43 108l184 27q18 -78 74 -117q57 -41 148 -41q55 0 102 19q45 18 78 53t51 98q16 55 16 146v194h-2q-23 -47 -47 -78q-39 -47 -71 -67q-49 -31 -97 -47q-49 -16 -127 -17q-106 0 -174 33 q-74 35 -119 100q-47 68 -67 168q-21 97 -21 236zM330 551q0 -123 14 -195q16 -78 47 -125q33 -51 80 -67q49 -18 115 -19q53 0 102 21q53 23 92 70q37 47 64 126q25 76 24 189q0 119 -22 192q-25 82 -64 129.5t-90 70t-104 22.5q-66 0 -117 -23q-49 -20 -80 -72 q-33 -53 -47 -126.5t-14 -192.5z" />
<glyph unicode="h" d="M184 0v1485h183v-391q0 -35 -5 -101q-2 -27 -4 -51t-2 -45h4q27 49 55.5 84t73.5 66q35 25 93 40q49 14 116 15q82 0 150 -23q61 -20 108 -67q45 -45 70 -117q23 -66 23 -174v-721h-181v694q0 78 -16 133q-14 49 -47 82q-29 29 -70 41q-39 12 -88 13q-55 0 -110 -23 q-45 -18 -88 -66q-40 -43 -62 -104q-23 -63 -22 -143v-627h-181z" />
<glyph unicode="i" d="M143 0v141h422v799h-319v141h499v-940h379v-141h-981zM545 1292v193h200v-193h-200z" />
<glyph unicode="j" d="M117 -242q18 -6 53 -12q12 -2 33.5 -5t32.5 -5q27 -4 75 -8q53 -4 78 -4q59 0 105 14q51 16 86 45q31 27 55 78q20 43 20 114v965h-405v141h586v-1110q0 -113 -35 -184q-37 -78 -94.5 -123t-137.5 -67.5t-163 -22.5q-29 0 -82 4q-35 2 -80 10q-25 4 -70 13q-27 4 -57 16 v141zM637 1292v193h199v-193h-199z" />
<glyph unicode="k" d="M236 0v1485h180v-928l475 524h211l-438 -465l460 -616h-211l-364 500l-133 -99v-401h-180z" />
<glyph unicode="l" d="M133 0v141h422v1200h-289v144h469v-1344h381v-141h-983z" />
<glyph unicode="m" d="M98 1081h150l1 -8q1 -8 1 -16q0 -6 1 -21.5t1 -26t1 -28.5t1 -27v-47h2q10 33 31 74q16 35 43 63q23 25 61 43q31 14 80 15q92 0 133 -47q43 -49 62 -150h2q23 55 39 84q18 33 51 61.5t63 39.5q37 12 82 12q59 0 105 -23q43 -22 67.5 -67.5t36.5 -116.5q12 -72 12 -174 v-721h-168v686q0 80 -6 131q-6 43 -20 86q-12 35 -35 47.5t-53 12.5q-63 0 -105 -84q-39 -80 -39 -252v-627h-168v686q0 80 -6 131q-6 52 -18 86q-12 35 -35 47q-20 12 -53 13q-35 0 -60 -25q-27 -27 -45 -72q-20 -49 -28 -112q-10 -72 -11 -148v-606h-170v852v70 q0 12 -1 36.5t-1 34.5q0 12 -1 30.5t-1 27.5q0 10 -1 20z" />
<glyph unicode="n" d="M178 1081h170l1 -9q1 -9 1 -17q0 -6 2 -23.5t2 -27.5q0 -8 1 -28t1 -30v-49h4q31 57 56 84q37 41 76 66q37 23 96 40q49 14 119 15q80 0 147 -23q63 -20 107 -67q45 -47 65 -117q23 -74 23 -174v-721h-181v694q0 78 -16 133q-14 49 -47 82q-29 29 -70 41q-39 12 -88 13 q-55 0 -110 -23q-45 -18 -88 -66q-40 -43 -62 -104q-23 -63 -22 -143v-627h-181v852v70q0 12 -1 36.5t-1 34.5q0 12 -1 30.5t-1 27.5q0 10 -1 20z" />
<glyph unicode="o" d="M129 543q0 274 127 418q125 141 358 141q244 0 365 -139q119 -137 119 -420q0 -139 -35 -248t-96 -176q-65 -71 -154 -105q-92 -35 -205 -34q-104 0 -196 34q-90 35 -152 105q-63 74 -96 174q-35 109 -35 250zM319 543q0 -133 23 -209q25 -84 63.5 -131t92.5 -70 q49 -20 108.5 -20t120.5 20q57 18 96 67.5t62 133.5q23 86 22 209q0 127 -20 207q-23 86 -60 131q-43 51 -92 69q-52 18 -117 19q-68 0 -120 -21q-55 -20 -95 -69q-41 -49 -61 -131q-23 -86 -23 -205z" />
<glyph unicode="p" d="M178 1081h176l1 -3q1 -3 1 -7v-10t2 -21.5t2 -23.5t1 -26.5t1 -29t1.5 -30t1.5 -27.5h4q27 55 55 90q33 39 72 64q33 20 90 35q49 12 112 12q113 0 185 -39q74 -41 121 -115q43 -70 65 -176q20 -100 20.5 -227t-20.5 -228q-23 -113 -65 -180q-45 -74 -121 -116 q-74 -43 -185 -43q-49 0 -104 10q-45 8 -94 33q-37 18 -76 57q-37 37 -57 84h-5v-17q0 -4 1.5 -17t1.5 -21v-54q0 -10 1 -28.5t1 -28.5v-424h-183v1284v78q0 12 -1 33.5t-1 32t-1 28t-1 23.5q0 8 -1 17t-1 11zM367 524q0 -115 18 -194.5t53 -126.5t90 -70q49 -20 121 -20 q70 0 121 28q49 27 80 84q29 51 41 135q12 80 12 187q0 115 -10 178q-12 80 -43 131q-33 57 -78 82q-47 27 -121 27q-58 0 -110.5 -18.5t-91.5 -67.5q-37 -47 -60 -134q-22 -90 -22 -221z" />
<glyph unicode="q" d="M137 532q0 283 98.5 424.5t292.5 141.5q74 0 117 -11q49 -12 92 -34q35 -18 70 -58q23 -25 53 -82h2q0 8 1 25.5t1 28t2 28t2 25.5q0 18 4 43q2 12 2 20h177q0 -2 -1 -11t-1 -17q0 -6 -1 -24.5t-1 -31.5q0 -10 -1.5 -36.5t-1.5 -44.5v-117v-1227h-182v440q0 8 1 26.5 t1 29.5v55q0 16 1 29.5t1 27.5h-2q-23 -47 -55 -90q-27 -35 -72 -65q-37 -25 -92 -39q-57 -14 -115 -15q-203 0 -297 142q-96 143 -96 417zM324 539q0 -113 14 -187q16 -84 45 -133q31 -53 78 -79.5t117 -26.5q53 0 110 20q49 18 90 68q40 49 62 135q23 90 22.5 219 t-18.5 197q-23 84 -57.5 127t-90.5 65q-49 20 -116.5 20.5t-116.5 -24.5t-80 -78q-29 -49 -45 -133q-14 -73 -14 -190z" />
<glyph unicode="r" d="M242 1081h172q0 -4 6 -23.5t8 -31.5q2 -8 7 -29.5t7 -33.5l13 -68q2 -12 4 -35.5t2 -28.5h6q33 74 57 113q33 51 74 84q51 39 100 55q58 18 142 19q72 0 108 -4q47 -4 96 -13v-167q-33 6 -98 14q-53 6 -112 6q-82 0 -152 -35q-66 -33 -113 -92t-71 -137q-25 -77 -25 -166 v-508h-178v700q0 57 -6 115q-6 68 -15 109q-10 61 -18 94q-2 10 -7 32.5t-7 30.5z" />
<glyph unicode="s" d="M168 248l158 31q12 -53 38.5 -86t63.5 -52q31 -16 86 -22q33 -4 107 -4q66 0 108 8q51 10 84 29q37 23 57 53q20 33 21 80q0 49 -24.5 79.5t-69.5 53.5q-35 16 -105 35q-35 8 -69.5 17l-63.5 17q-115 33 -127 37q-74 25 -113 51q-47 33 -79 84q-29 45 -29 127 q0 150 104 230q109 84 308 84q84 0 147 -15q68 -16 125 -47q51 -29 90 -80q33 -43 49 -118l-162 -21q-6 45 -28 74q-20 27 -57 43t-76 22q-43 6 -88 7q-244 0 -244 -152q0 -47 20 -74q23 -29 62 -47q51 -25 92 -33l119 -30q68 -16 133 -37q72 -23 125 -55q57 -35 94 -90.5 t37 -137.5q0 -76 -31 -137t-86 -104q-57 -45 -137 -66q-86 -23 -186 -22q-80 0 -170 14q-66 10 -132 45q-55 29 -96 82q-37 47 -55 127z" />
<glyph unicode="t" d="M190 940v141h170l58 283h121v-283h432v-141h-432v-651q0 -84 41 -119q43 -37 141 -37q25 0 82 4q53 4 82 8q10 2 35.5 5.5t37.5 5.5q37 6 60 12v-137q-6 -2 -25.5 -6.5t-31.5 -8.5q-39 -10 -80 -16q-16 -2 -48 -5t-47 -5q-53 -6 -104 -6q-162 0 -244 69q-80 68 -80 215 v672h-168z" />
<glyph unicode="u" d="M184 360v721h181v-686q0 -80 12 -131q14 -57 37 -86q27 -33 69 -45q49 -14 107 -14q59 0 115 22q49 20 88 66q37 43 55 104q20 68 20 144v626h181v-850v-71q0 -12 1 -37t1 -35q0 -12 1 -30.5t1 -26.5q0 -10 1 -21l1 -10h-170l-1 9q-1 9 -1 18q0 6 -1 23.5t-1 27.5 q0 8 -1 27.5t-1 29.5t-1 26.5t-1 22.5h-3q-23 -43 -57 -84q-31 -37 -72 -65q-33 -23 -94 -41q-49 -14 -123 -14q-88 0 -155 22q-63 20 -106.5 67.5t-61.5 118.5q-21 82 -21 172z" />
<glyph unicode="v" d="M70 1081h200l269 -702l5 -15.5t6 -20.5t5 -19q4 -16 10 -33t10 -33l18.5 -65.5l14.5 -51.5q2 6 5 19.5t10 32.5l20 65l21 64l18 55l276 704h201l-444 -1081h-213z" />
<glyph unicode="w" d="M20 1081h179l94 -606q2 -25 8 -67q2 -16 5 -46t5 -45l11 -94q4 -61 4 -73l20 86q4 14 6 24t6 21.5t8.5 26l10.5 33.5t6 21l135 424h193l131 -424q4 -14 14 -55q8 -27 18 -71q14 -49 23 -86q0 43 2 73q2 35 10 94l13 91l5 36.5t5 30.5l100 606h176l-190 -1081h-205 l-141 471l-19 61q-14 47 -18 66q-6 18 -21 76q-12 -49 -20 -74q-14 -53 -18.5 -67.5l-11.5 -38t-9 -27.5l-147 -467h-203z" />
<glyph unicode="x" d="M94 0l416 555l-397 526h198l299 -419l299 419h201l-397 -524l420 -557h-201l-322 444l-321 -444h-195z" />
<glyph unicode="y" d="M66 1081h192l264 -641q18 -51 27 -67l31 -78l26 -70l15 -39q4 14 14 41l27 68q25 63 30 78l14.5 36.5l12.5 30.5l252 641h190l-456 -1081q-37 -98 -76 -176t-90 -135q-47 -53 -108.5 -84t-137.5 -31q-45 0 -64 2q-23 2 -61 10v135q25 -4 43 -4q8 0 21.5 -1t19.5 -1 q78 0 149 60q68 55 117 186l19 49z" />
<glyph unicode="z" d="M147 0v137l680 805h-641v139h844v-137l-682 -805h719v-139h-920z" />
<glyph unicode="{" d="M227 461v137q55 4 101 14q45 12 88 41q37 27 63 72q23 39 23 104v353q0 68 22 125q23 59 60 96t94 59.5t119 22.5h264v-139h-213q-41 0 -78 -11q-25 -6 -53 -35q-20 -20 -31 -59q-8 -33 -8 -90v-346q0 -61 -21 -105q-22 -46 -55 -79q-41 -41 -74 -58q-43 -23 -82 -31v-2 q33 -6 84 -32q33 -16 74 -58q31 -31 53 -80q20 -43 21 -104v-346q0 -111 39 -152q41 -45 131 -45h213v-139h-264q-61 0 -119 23q-53 20 -94 61q-37 37 -60 96q-23 57 -22 123v352q0 68 -23 107q-25 43 -63 70q-43 29 -88 40q-46 11 -101 15z" />
<glyph unicode="|" d="M530 -426v1911h166v-1911h-166z" />
<glyph unicode="}" d="M168 -287h213q90 0 131 45t41 152v346q0 66 18 104q23 49 54 80q39 39 73 58q45 25 84 32v2q-43 10 -82 31q-35 18 -73 58q-31 31 -54 79q-20 43 -20 105v346q0 49 -10 90q-10 39 -31 59q-27 27 -55 35q-37 10 -76 11h-213v139h264q61 0 119 -23q53 -20 92 -59t62 -96 q20 -53 20 -125v-353q0 -61 25 -104q27 -49 61 -72q41 -29 90 -41q45 -10 100 -14v-137q-55 -4 -100 -15q-49 -12 -90 -40q-35 -25 -61 -70q-25 -43 -25 -107v-352q0 -70 -20 -123q-23 -57 -62 -96q-41 -41 -92 -61q-57 -23 -119 -23h-264v139z" />
<glyph unicode="~" d="M109 580v143q55 41 114 61q68 23 148 23q40 0 80 -6q27 -4 79 -17q27 -6 76 -22q18 -6 37 -13.5t37 -13.5l45 -14q29 -10 51 -16q31 -8 51 -11q33 -4 50 -4q68 0 129 25q63 25 114 67v-149q-31 -22 -61 -37q-35 -16 -60 -25q-41 -12 -65 -14q-45 -4 -74 -4q-63 0 -141 22 q-33 10 -146 48q-127 45 -217 45q-37 0 -71 -6q-37 -6 -62 -17q-20 -8 -57 -29q-34 -18 -57 -36z" />
<glyph unicode="&#xa0;" />
<glyph unicode="&#xa2;" d="M133 655q0 117 29 215q27 90 86 164q55 68 137 111q76 39 184 49v184h129v-184q86 -6 152 -33q61 -25 115 -71q49 -43 79.5 -98.5t42.5 -119.5l-184 -14q-18 90 -81.5 145.5t-188.5 55.5q-156 0 -236 -101q-82 -104 -82 -290q0 -197 84 -299q82 -100 236 -101 q59 0 102 15q49 16 82 40.5t60 67.5q23 39 32 94l183 -12q-8 -59 -37 -119q-25 -53 -80 -104q-51 -49 -118.5 -78t-160.5 -39v-194h-129v194q-109 8 -190 51q-84 43 -137 109q-53 63 -82 162q-27 87 -27 200z" />
<glyph unicode="&#xa3;" d="M55 0v154q37 18 80 47q39 25 62 57q23 31 39 86t16 127v141h-186v142h186v221q0 90 24 164q23 70 78 125q53 53 131 79.5t189 26.5q78 0 137 -14q63 -14 113 -43q45 -25 86 -74q39 -45 55 -98q-2 -2 -6 -4t-21 -7q-4 -2 -11 -5t-15 -5t-16.5 -5t-16.5 -5l-37.5 -11 t-50.5 -16q-20 61 -81.5 94t-135.5 33q-123 0 -182 -57q-61 -59 -62 -182v-217h410v-142h-410v-139q0 -57 -6 -106q-6 -41 -27 -88q-18 -39 -47 -68q-33 -33 -74 -53h601q59 0 86 26q29 29 41 80l167 -24q-9 -43 -24 -86q-14 -41 -43 -76q-31 -37 -68 -58q-39 -20 -98 -20 h-883z" />
<glyph unicode="&#xa5;" d="M51 1350h201l360 -619l365 619h199l-412 -670h321v-143h-383v-138h383v-143h-383v-256h-178v256h-381v143h381l2 138h-383v143h320z" />
<glyph unicode="&#xa9;" d="M31 762q0 186 47 323q47 135 125 224q84 92 184 133q108 43 227 43q120 0 228 -43q100 -41 184 -133q78 -88 125 -224q45 -133 45 -323.5t-45 -323.5q-47 -139 -125 -225q-84 -92 -184 -133q-102 -41 -227.5 -41t-227.5 41q-100 41 -184 133q-78 86 -125 225 q-47 138 -47 324zM127 762q0 -178 37 -289q39 -117 104 -194q63 -76 156 -111q96 -37 190.5 -37t190.5 37q88 33 156 111q68 76 106 194q39 117 39 289q0 168 -39 285q-39 119 -106.5 194.5t-155.5 112.5q-84 35 -190.5 35t-190.5 -35q-94 -39 -156 -113q-66 -78 -104 -194 q-37 -111 -37 -285zM268 764q0 94 23 174q23 84 63 135q39 51 109 84q66 31 151 31q68 0 117 -19q53 -20 86 -46.5t60 -67.5q29 -41 41 -76l-113 -35q-8 23 -27 51q-16 25 -39 45q-20 18 -53 31q-27 10 -70 10q-53 0 -98 -22q-43 -20 -69 -64q-27 -41 -39.5 -100t-12.5 -131 q0 -76 14.5 -133.5t43.5 -102.5q29 -43 69 -67q43 -25 99 -25q37 0 71 15q25 10 56 36q23 20 39 49t28 58l117 -37q-12 -29 -45 -82q-25 -39 -64 -72q-41 -35 -86 -51q-49 -18 -116 -18q-90 0 -158 31q-63 29 -108.5 90t-65.5 135q-23 84 -23 174z" />
<glyph unicode="&#xad;" d="M334 465v160h561v-160h-561z" />
<glyph unicode="&#xae;" d="M31 762q0 186 47 323q47 135 125 224q84 92 184 133q108 43 227 43q120 0 228 -43q100 -41 184 -133q78 -88 125 -224q45 -133 45 -323.5t-45 -323.5q-47 -139 -125 -225q-84 -92 -184 -133q-102 -41 -227.5 -41t-227.5 41q-100 41 -184 133q-78 86 -125 225 q-47 138 -47 324zM127 762q0 -178 37 -289q39 -117 104 -194q63 -76 156 -111q96 -37 190.5 -37t190.5 37q88 33 156 111q68 76 106 194q39 117 39 289q0 168 -39 285q-39 119 -106.5 194.5t-155.5 112.5q-84 35 -190.5 35t-190.5 -35q-94 -39 -156 -113q-66 -78 -104 -194 q-37 -111 -37 -285zM328 342v832h307q141 0 217 -63.5t76 -172.5q0 -104 -51 -164q-55 -63 -138 -82l222 -350h-146l-199 338h-161v-338h-127zM455 774h182q80 0 123 43q41 41 41 119q0 68 -47 104q-43 35 -129 35h-170v-301z" />
<glyph unicode="&#xb4;" d="M401 1200v21l228 239h196v-28l-299 -232h-125z" />
<glyph unicode="&#x2000;" horiz-adv-x="741" />
<glyph unicode="&#x2001;" horiz-adv-x="1482" />
<glyph unicode="&#x2002;" horiz-adv-x="741" />
<glyph unicode="&#x2003;" horiz-adv-x="1482" />
<glyph unicode="&#x2004;" horiz-adv-x="493" />
<glyph unicode="&#x2005;" horiz-adv-x="370" />
<glyph unicode="&#x2006;" horiz-adv-x="245" />
<glyph unicode="&#x2007;" horiz-adv-x="245" />
<glyph unicode="&#x2008;" horiz-adv-x="184" />
<glyph unicode="&#x2009;" horiz-adv-x="294" />
<glyph unicode="&#x200a;" horiz-adv-x="81" />
<glyph unicode="&#x2010;" d="M334 465v160h561v-160h-561z" />
<glyph unicode="&#x2011;" d="M334 465v160h561v-160h-561z" />
<glyph unicode="&#x2012;" d="M334 465v160h561v-160h-561z" />
<glyph unicode="&#x2013;" d="M170 451v137h889v-137h-889z" />
<glyph unicode="&#x2014;" d="M-10 451v137h1247v-137h-1247z" />
<glyph unicode="&#x2018;" d="M397 862l312 623h122l-169 -623h-265z" />
<glyph unicode="&#x2019;" d="M399 862l168 623h267l-312 -623h-123z" />
<glyph unicode="&#x201c;" d="M176 862l311 623h123l-168 -623h-266zM616 862l312 623h123l-170 -623h-265z" />
<glyph unicode="&#x201d;" d="M178 862l168 623h266l-311 -623h-123zM616 862l170 623h265l-312 -623h-123z" />
<glyph unicode="&#x2022;" d="M336 682q0 55 22 106q25 55 58 88t88 58q51 23 106 22q53 0 109 -22q51 -20 90 -57q35 -33 59 -89q23 -51 23 -106q0 -53 -23 -109q-23 -57 -59 -90q-43 -41 -90 -59q-55 -23 -109 -23q-55 0 -106 22.5t-88 59.5q-35 35 -57.5 90.5t-22.5 108.5z" />
<glyph unicode="&#x2026;" d="M117 0v219h176v-219h-176zM528 0v219h172v-219h-172zM938 0v219h174v-219h-174z" />
<glyph unicode="&#x202f;" horiz-adv-x="294" />
<glyph unicode="&#x205f;" horiz-adv-x="370" />
<glyph unicode="&#x20ac;" d="M90 461v143h121q-4 29 -4 39v37v43q0 10 4 35h-121v141h129q29 233 156 352q129 119 354 119q57 0 107 -6q45 -6 96 -23q61 -20 90 -34q39 -18 86 -54l-82 -139q-59 45 -127 72q-70 29 -156 28q-74 0 -129 -14q-59 -16 -98 -49q-45 -39 -67 -96q-25 -61 -37 -158h460 v-139h-475v-37q0 -8 -1 -20.5t-1 -20.5q0 -35 4 -76h473v-141h-458q10 -86 28 -139q23 -66 60 -105q39 -43 96 -63q55 -20 139 -21q55 0 94 8q47 10 82 25q41 16 70 33q12 6 34.5 20.5t29.5 18.5l75 -136q-57 -37 -86 -51q-53 -27 -92 -39q-53 -16 -100 -24 q-61 -10 -117 -10q-117 0 -209 34q-88 35 -151 97q-57 57 -97 151q-37 88 -49 199h-131z" />
<glyph unicode="&#x2122;" d="M4 1391v92h457v-92h-174v-549h-113v549h-170zM518 842v641h158l182 -465l4 -8l4 -13q4 -8 6 -14q27 70 29 76t6 14t6 14q6 14 9 25q2 4 5 11t3 10l4 8l137 342h154v-641h-107v352v160l-6 -19q-2 -8 -4 -14q-2 -2 -2 -6t-2 -6l-191 -467h-90l-135 342l-10 30 q-4 10 -10 26.5t-13 33.5q-27 66 -30 80v-43v-469h-107z" />
<glyph unicode="&#xe000;" horiz-adv-x="1080" d="M0 1080h1080v-1080h-1080v1080z" />
<glyph unicode="&#xf001;" d="M84 950v131h152v123q0 59 12 109q14 59 39 88q33 39 82 59q55 23 131 23q23 0 67 -4q41 -4 60 -9v-137q-25 4 -39.5 6t-40.5 2q-41 0 -66 -12q-27 -12 -39 -31q-14 -20 -20 -50.5t-6 -67.5v-99h211v-131h-211v-950h-180v950h-152zM881 0v1081h180v-1081h-180zM881 1313 v172h180v-172h-180z" />
<glyph unicode="&#xfb01;" d="M84 950v131h152v123q0 59 12 109q14 59 39 88q33 39 82 59q55 23 131 23q23 0 67 -4q41 -4 60 -9v-137q-25 4 -39.5 6t-40.5 2q-41 0 -66 -12q-27 -12 -39 -31q-14 -20 -20 -50.5t-6 -67.5v-99h211v-131h-211v-950h-180v950h-152zM881 0v1081h180v-1081h-180zM881 1313 v172h180v-172h-180z" />
<glyph unicode="&#xf002;" d="M84 950v131h152v123q0 59 12 109q14 59 39 88q33 39 82 59q55 23 131 23q23 0 67 -4q41 -4 60 -9v-137q-25 4 -39.5 6t-40.5 2q-41 0 -66 -12q-27 -12 -39 -31q-14 -20 -20 -50.5t-6 -67.5v-99h211v-131h-211v-950h-180v950h-152zM881 0v1485h180v-1485h-180z" />
<glyph unicode="&#xfb02;" d="M84 950v131h152v123q0 59 12 109q14 59 39 88q33 39 82 59q55 23 131 23q23 0 67 -4q41 -4 60 -9v-137q-25 4 -39.5 6t-40.5 2q-41 0 -66 -12q-27 -12 -39 -31q-14 -20 -20 -50.5t-6 -67.5v-99h211v-131h-211v-950h-180v950h-152zM881 0v1485h180v-1485h-180z" />
<glyph unicode="&#xfb03;" horiz-adv-x="3686" d="M2601 0v141h422v799h-319v141h499v-940h379v-141h-981zM3003 1292v193h200v-193h-200zM1366 940v141h262v27q0 98 23 172q20 68 74 117q47 43 129 65q84 23 192 23q8 0 31.5 -1t38.5 -1q27 0 80 -4l38.5 -5.5t36.5 -3.5l58 -8v-143q-6 2 -26.5 3t-29.5 1l-75 6 q-53 4 -74 4q-14 0 -32.5 1t-22.5 1q-59 0 -115 -10q-51 -10 -82 -37q-33 -29 -47 -74q-16 -49 -16 -122v-11h491v-141h-491v-940h-181v940h-262zM137 940v141h262v27q0 98 23 172q20 68 74 117q47 43 129 65q84 23 192 23q8 0 31.5 -1t38.5 -1q27 0 80 -4l38.5 -5.5 t36.5 -3.5l58 -8v-143q-6 2 -26.5 3t-29.5 1l-75 6q-53 4 -74 4q-14 0 -32.5 1t-22.5 1q-59 0 -115 -10q-51 -10 -82 -37q-33 -29 -47 -74q-16 -49 -16 -122v-11h491v-141h-491v-940h-181v940h-262z" />
<glyph unicode="&#xfb04;" horiz-adv-x="3686" d="M2591 0v141h422v1200h-289v144h469v-1344h381v-141h-983zM1366 940v141h262v27q0 98 23 172q20 68 74 117q47 43 129 65q84 23 192 23q8 0 31.5 -1t38.5 -1q27 0 80 -4l38.5 -5.5t36.5 -3.5l58 -8v-143q-6 2 -26.5 3t-29.5 1l-75 6q-53 4 -74 4q-14 0 -32.5 1t-22.5 1 q-59 0 -115 -10q-51 -10 -82 -37q-33 -29 -47 -74q-16 -49 -16 -122v-11h491v-141h-491v-940h-181v940h-262zM137 940v141h262v27q0 98 23 172q20 68 74 117q47 43 129 65q84 23 192 23q8 0 31.5 -1t38.5 -1q27 0 80 -4l38.5 -5.5t36.5 -3.5l58 -8v-143q-6 2 -26.5 3 t-29.5 1l-75 6q-53 4 -74 4q-14 0 -32.5 1t-22.5 1q-59 0 -115 -10q-51 -10 -82 -37q-33 -29 -47 -74q-16 -49 -16 -122v-11h491v-141h-491v-940h-181v940h-262z" />
</font>
</defs>
</svg>
